周梦康 发表于 2021-04-04 296 次浏览

PC 播放测试没问题,大部分手机也 ok,有部分手机只有嗡嗡的声音。

对比

./ffprobe -show_streams -i "rtmp://pull-live-aliyun.taobao.com/yq/246607-8d0dfd2aba9a1cae77eca2a77?auth_key=xxxx"
Input #0, flv, from 'rtmp://pull-live-aliyun.taobao.com/yq/246607-8d0dfd2aba9a1cae77eca2a77?auth_key=3417262449-0-0-e30203db539a571e7c53c1a19022d94f':
  Metadata:
    displayWidth    : 1920
    displayHeight   : 1080
    fps             : 25
    profile         :
    level           :
    Server          : Tengine
    videocodecreal  : 0
    copyright       : grustv.com
  Duration: 00:00:00.00, start: 64195.474000, bitrate: N/A
    Stream #0:0: Data: none
    Stream #0:1: Video: h264 (High), yuvj420p(pc, bt709, progressive), 1920x1080, 25 fps, 25 tbr, 1k tbn, 50 tbc
    Stream #0:2: Audio: aac (LC), 48000 Hz, stereo, fltp
Unsupported codec with id 0 for input stream 0
./ffprobe -show_streams -i "rtmp://pull-live-aliyun.taobao.com/yq/f01faf99a809fc663ca1a81f05398dba?auth_key=xxx"
Input #0, flv, from 'rtmp://pull-live-aliyun.taobao.com/yq/f01faf99a809fc663ca1a81f05398dba?auth_key=3417262956-0-0-0eeefdab9e68516d6fb156b5bd6ad612':
  Metadata:
    displayWidth    : 1024
    displayHeight   : 576
    fps             : 30
    profile         :
    level           :
    Server          : Tengine
    videocodecreal  : 0
    fileSize        : 0
    audiochannels   : 2
    2.1             : false
    3.1             : false
    4.0             : false
    4.1             : false
    5.1             : false
    7.1             : false
    encoder         : obs-output module (libobs version 24.0.2-modified)
  Duration: 00:00:00.00, start: 32.086000, bitrate: N/A
    Stream #0:0: Data: none
    Stream #0:1: Video: h264 (High), yuv420p(progressive), 1024x576, 1689 kb/s, 30 fps, 30 tbr, 1k tbn, 60 tbc
    Stream #0:2: Audio: aac (LC), 44100 Hz, stereo, fltp, 163 kb/s
Unsupported codec with id 0 for input stream 0

评论列表